PDA

View Full Version : 16 Every Detail Counts (2017) Telugu - 720p - HDRip - x264 - MP3 (Line Audio) - TMV



wroser
03-11-2017, 12:26 PM
http://i.imgur.com/eG2OAxh.jpg





General
Format : Matroska
Format version : Version 4 / Version 2
File size : 973 MiB
Duration : 1 h 44 min
Overall bit rate mode : Variable
Overall bit rate : 1 308 kb/s
Encoded date : UTC 2017-03-11 04:53:42
Writing application : mkvmerge v7.0.0 ('Where We Going') 32bit built on Jun 9 2014 15:08:34
Writing library : libebml v1.3.0 + libmatroska v1.4.1

Video
ID : 1
Format : AVC
Format/Info : Advanced Video Codec
Format profile : High@L3.1
Format settings, CABAC : Yes
Format settings, ReFrames : 4 frames
Codec ID : V_MPEG4/ISO/AVC
Duration : 1 h 44 min
Bit rate : 1 220 kb/s
Width : 1 280 pixels
Height : 536 pixels
Display aspect ratio : 2.40:1
Frame rate mode : Constant
Frame rate : 29.970 (30000/1001) FPS
Color space : YUV
Chroma subsampling : 4:2:0
Bit depth : 8 bits
Scan type : Progressive
Bits/(Pixel*Frame) : 0.059
Stream size : 908 MiB (93%)
Writing library : x264 core 148 r2638 7599210
Encoding settings : cabac=1 / ref=3 / deblock=1:0:0 / analyse=0x3:0x113 / me=hex / subme=7 / psy=1 / psy_rd=1.00:0.00 / mixed_ref=1 / me_range=16 / chroma_me=1 / trellis=1 / 8x8dct=1 / cqm=0 / deadzone=21,11 / fast_pskip=1 / chroma_qp_offset=-2 / threads=17 / lookahead_threads=2 / sliced_threads=0 / nr=0 / decimate=1 / interlaced=0 / bluray_compat=0 / constrained_intra=0 / bframes=3 / b_pyramid=2 / b_adapt=1 / b_bias=0 / direct=1 / weightb=1 / open_gop=0 / weightp=2 / keyint=300 / keyint_min=29 / scenecut=40 / intra_refresh=0 / rc_lookahead=40 / rc=2pass / mbtree=1 / bitrate=1220 / ratetol=1.0 / qcomp=0.60 / qpmin=0 / qpmax=69 / qpstep=4 / cplxblur=20.0 / qblur=0.5 / ip_ratio=1.40 / aq=1:1.00
Language : Tamil
Default : Yes
Forced : No

Audio
ID : 2
Format : MPEG Audio
Format version : Version 1
Format profile : Layer 3
Mode : Joint stereo
Mode extension : MS Stereo
Codec ID : A_MPEG/L3
Codec ID/Hint : MP3
Duration : 1 h 44 min
Bit rate mode : Variable
Bit rate : 85.7 kb/s
Nominal bit rate : 96.0 kb/s
Channel(s) : 2 channels
Sampling rate : 44.1 kHz
Frame rate : 38.281 FPS (1152 spf)
Compression mode : Lossy
Stream size : 63.8 MiB (7%)
Writing library : LAME3.99r
Encoding settings : -m j -V 4 -q 3 -lowpass 15.1 --abr 96
Language : Telugu
Default : Yes
Forced : No



https://extraimage.net/images/2017/03/11/86e6097ad40a29dcd8551c23f0337412.png
https://extraimage.net/images/2017/03/11/73adce199b4e41161657eb7d156a5174.png
https://extraimage.net/images/2017/03/11/c0de760ee26e00d7509e6d8ed95cd0d8.png
https://extraimage.net/images/2017/03/11/04e1c5f10b30e46b5d9482b65e9c2a22.png

SINGLE LINKS




http://www.heroupload.com/aaa5969a73f296cc/16.Every.Detail.Counts.2017.Telugu.HDRip.720p.x264 .Line.Audio.MP3.1GB-TMV.mkv